vagtrafikregistret.com

Torrents
Documentales 842
Películas 11256
Películas HD 2068
Series 1961
   Episodios 22513
Series HD 244
   Episodios 2743
Juegos 2689
   PC 1736
Variados 1521
   Deportes 36
   Programas 592
   Videoclips 102
   Otros 722
Música MP3 3525
Total Torrents 57258

Información
Esta web no contiene ningún tipo de fichero almacenado.

Todos los archivos se comparten mediante el BitTorrent, un programa P2P de intercambio entre usuarios.


Descarga la última versión de uTorrent y baja a la máxima velocidad:
Lana Del Rey - Summertime Sadness
Total Descargas:  2.154 En Enero:  2.154

Fecha:  2016-10-08



Torrent:      Descargar         Tamaño:  49,89 MB
Descripción:

General Complete name : Lana Del Rey - Summertime Sadness (1080p)
x264 [VX] [P2PDL].mp4 Format : MPEG-4 Format profile : Base Media /
Version 2 Codec ID : mp42 File size : 45.0 MiB Duration : 4mn 42s Video
ID : 1 Format : AVC Codec ID/Info : Advanced Video Coding Duration :
4mn 42s Bit rate mode : Variable Bit rate : 1 200 Kbps Width : 1 920
pixels Height : 1 080 pixels Display aspect ratio : 16:9 Frame rate mode :
Constant Frame rate : 25.000 fps Color space : YUV Chroma subsampling
: 4:2:0 Bit depth : 8 bits Scan type : Progressive Bits/(Pixel*Frame) :
0.023 Stream size : 40.5 MiB (90%) Writing library : x264 core 128 Audio
ID : 2 Format : AAC Duration : 4mn 42s Bit rate mode : Variable Bit rate :
128 Kbps Channel(s) : 2 channels Channel positions : Front: L R Sampling
rate : 44.1 KHz Stream size : 4.32 MiB (10%) Subtitles : No



Volver al índice de Variados





November 2017 (612) | picture frame stores | Red Wine